Try Our New BETA Version
GO
(navigation image)
Home Audio Books & Poetry | Community Audio | Computers & Technology | Grateful Dead | Live Music Archive | Music, Arts & Culture | Netlabels | News & Public Affairs | Non-English Audio | Podcasts | Radio Programs | Spirituality & Religion
Search: Advanced Search
Anonymous User (login or join us)
Upload

Listen to audio

item image

Stream (help[help])

VBR M3U
MP3 via M3U

Play / Download (help[help])

VBR ZIP

Ogg Vorbis

Lossless zip


All Files: HTTPS Torrent (2/0)

Resources

Bookmark

DopapodDopapod Live at The Palladium on 2012-12-29 (December 29, 2012)

something has gone horribly wrong 8-p
Prefer flash? · Embed · Questions/Feedback?


Collection: Dopapod
Band/Artist: Dopapod
Date: December 29, 2012 (check for other copies)
Venue: The Palladium
Location: Worcester, MA

Source: Schoeps MK41>KC5>CMC6>Sonosax SX-R4(24bit/96khz)
Lineage: WAV>USB>Macbook Pro>Wave Editor(tracking,fades,resample(izotope)/dither(mbit+)to 16 bit/44.1k)>XAct(FLAC 8,ffp,fix sbe)
Taped by: Andy Murray
Transferred by: Andy Murray


Description

01. Intro
02. French Bowling
03. Off The Cuff
04. Flipped
05. Trapper Keeper
06. Sonic
07. banter
08. Vol.3 #86

Notes

Dopapod
2012-12-29
The Palladium
Worcester, MA

Recorded and transferred by Andy Murray

Mics were right of center next to soundboard cage

Schoeps MK41>KC5>CMC6>Sonosax SX-R4(24bit/96khz) DIN

WAV>USB>Macbook Pro>Wave Editor(tracking,fades,resample(izotope)/dither(mbit+)to 16 bit/44.1k)>XAct(FLAC 8,ffp,fix sbe)

Thanks to Brian Vaz for the clamp space

Dopapod opened for moe.

1 Set

length expanded size cdr WAVE problems fmt ratio filename
5:05.53 53926700 B --- -- ----- wav 1.0000 dopapod2012-12-29_mk41_1644_d1t01.wav
9:16.19 98123132 B --- -- ----- wav 1.0000 dopapod2012-12-29_mk41_1644_d1t02.wav
8:05.48 85666940 B --- -- ----- wav 1.0000 dopapod2012-12-29_mk41_1644_d1t03.wav
10:32.40 111578924 B --- -- ----- wav 1.0000 dopapod2012-12-29_mk41_1644_d1t04.wav
9:22.51 99256796 B --- -- ----- wav 1.0000 dopapod2012-12-29_mk41_1644_d1t05.wav
11:28.58 121499660 B --- -- ----- wav 1.0000 dopapod2012-12-29_mk41_1644_d1t06.wav
1:03.22 11164988 B --- -- ----- wav 1.0000 dopapod2012-12-29_mk41_1644_d1t07.wav
10:19.40 109285724 B --- -- ----- wav 1.0000 dopapod2012-12-29_mk41_1644_d1t08.wav
65:14.31 690502864 B 1.0000 (8 files)

Individual Files

Whole Item FormatSize
[generated M3U] M3U Stream 
[generated VBR MP3 ZIP] VBR MP3 ZIP Stream 
Audio Files Flac VBR MP3 Ogg Vorbis PNG
Intro 18.5 MB 
7.1 MB 
3.2 MB 
7.5 KB 
French Bowling 47.5 MB 
13.5 MB 
6.2 MB 
9.8 KB 
Off The Cuff 40.8 MB 
11.8 MB 
5.4 MB 
10.4 KB 
Flipped 54.0 MB 
15.2 MB 
7.1 MB 
10.1 KB 
Trapper Keeper 49.1 MB 
13.5 MB 
6.2 MB 
9.5 KB 
Sonic 60.2 MB 
16.5 MB 
7.8 MB 
10.1 KB 
banter 4.6 MB 
1.5 MB 
722.1 KB 
9.7 KB 
Vol.3 #86 54.7 MB 
14.5 MB 
6.9 MB 
9.5 KB 
Information FormatSize
dopapod2012-12-29.schoeps_mk41_16bit.ffp Flac FingerPrint 576.0 B 
dopapod2012-12-29.schoeps_mk41_16bit.md5 Checksums 584.0 B 
dopapod2012-12-29.schoeps_mk41_16bit_files.xml Metadata [file] 
dopapod2012-12-29.schoeps_mk41_16bit_meta.xml Metadata 3.0 KB 
Other Files Archive BitTorrent Text
dopapod2012-12-29.schoeps_mk41_16bit_archive.torrent 26.4 KB 
dopapod2012-12-29_mk41_1644_ffp.txt 648.0 B 
dopapod2012-12-29_mk41_1644_info.txt 2.1 KB 

Be the first to write a review
Downloaded 38 times
Reviews


Terms of Use (31 Dec 2014)